<?xml version="1.0" standalone="no"?>
<!DOCTYPE svg PUBLIC "-//W3C//DTD SVG 1.1//EN" "http://www.w3.org/Graphics/SVG/1.1/DTD/svg11.dtd" >
<svg xmlns="http://www.w3.org/2000/svg">
<metadata>Generated by IcoMoon</metadata>
<defs>
<font id="absicons" horiz-adv-x="1024">
<font-face units-per-em="1024" ascent="960" descent="-64" />
<missing-glyph horiz-adv-x="1024" />
<glyph unicode="&#x20;" horiz-adv-x="512" d="" />
<glyph unicode="&#xe900;" glyph-name="audiobookshelf" horiz-adv-x="862" d="M854.995 455.649c-5.287 4.402-13.511 10.896-24.656 18.576v86.499c0 220.513-178.763 399.276-399.281 399.276v0c-220.513 0-399.276-178.763-399.276-399.276v-86.499c-11.145-7.697-19.369-14.174-24.656-18.576-4.368-3.659-7.126-9.116-7.126-15.217 0-0.006 0-0.011 0-0.017v0.001-103.619c0-0.011 0-0.025 0-0.038 0-6.101 2.758-11.558 7.095-15.191l0.031-0.025c12.326-10.26 40.612-31.782 84.651-53.849v-10.072c0-27.162 17.525-49.186 39.139-49.186v0c21.614 0 39.139 22.023 39.139 49.186v248.534c0 27.166-17.525 49.19-39.139 49.19v0c-20.707 0-37.657-20.215-39.043-45.795l-0.096-0.048v51.221c0 187.38 151.902 339.278 339.282 339.278v0c187.38 0 339.282-151.898 339.282-339.278v-51.221l-0.096 0.048c-1.386 25.58-18.332 45.795-39.043 45.795v0c-21.614 0-39.135-22.023-39.135-49.19v-248.512c0-27.162 17.521-49.186 39.135-49.186v0c21.618 0 39.139 22.023 39.139 49.186v10.072c44.042 22.067 72.329 43.585 84.655 53.849 4.368 3.661 7.126 9.12 7.126 15.223 0 0.011 0 0.022 0 0.034v-0.002 103.597c0 0.003 0 0.007 0 0.010 0 6.103-2.758 11.561-7.095 15.198l-0.031 0.025zM291.835 23.619c26.11 0 47.276 21.166 47.276 47.276v0 529.382c0 0.001 0 0.003 0 0.004 0 26.11-21.166 47.276-47.276 47.276h-48.846c-26.112 0-47.281-21.168-47.281-47.281v0-529.382c0-26.11 21.166-47.276 47.276-47.276 0.002 0 0.003 0 0.005 0v0zM213.535 520.595h107.764v-11.258h-107.764zM455.484 23.619c26.11 0 47.276 21.166 47.276 47.276v0 529.382c0 0.001 0 0.003 0 0.004 0 26.11-21.166 47.276-47.276 47.276h-48.846c-26.112 0-47.281-21.168-47.281-47.281v0-529.382c0-26.11 21.166-47.276 47.276-47.276 0.002 0 0.003 0 0.005 0v0zM377.183 520.595h107.75v-11.258h-107.75zM619.132 23.619c26.11 0 47.276 21.166 47.276 47.276v0 529.382c0 0.001 0 0.003 0 0.004 0 26.11-21.166 47.276-47.276 47.276h-48.846c-26.112 0-47.281-21.168-47.281-47.281v0-529.382c0-26.11 21.166-47.276 47.276-47.276 0.002 0 0.003 0 0.005 0v0zM540.831 520.595h107.75v-11.258h-107.75zM114.101 7.257h633.92c19.676 0 35.626-15.95 35.626-35.626v-0.004c0-19.676-15.95-35.626-35.626-35.626h-633.92c-19.676 0-35.626 15.95-35.626 35.626v0.004c0 19.676 15.95 35.626 35.626 35.626z" />
<glyph unicode="&#xe901;" glyph-name="microphone-2" horiz-adv-x="713" d="M713.333 484.083c0 26.75-21.667 48.333-48.333 48.333-26.75 0-48.333-21.667-48.333-48.333 0-95.25-22.833-173.917-69.083-226.417-41.917-47.5-105.25-74.917-190.833-74.917s-148.917 27.333-190.833 74.833c-46.333 52.5-69.083 131.167-69.083 226.5 0 26.75-21.667 48.333-48.333 48.333-26.75 0-48.333-21.667-48.333-48.333 0-118.75 30.75-219.417 93.25-290.333 46-52.167 108-87.5 186.083-101.25v-79.333h-118.5c-21.167 0-38.5-17.333-38.5-38.5v-38.583h468.667v38.583c0 21.167-17.333 38.5-38.5 38.5h-118.75v79.333c78.083 13.833 140 49.083 186.083 101.333 62.5 70.833 93.333 171.5 93.333 290.25v0 0zM356.667 960c98.667 0 179.333-80.75 179.333-179.333v-4.667h-96.417v-114.25h96.5v-58.167h-96.5v-114.25h96.5v-41.083c0-98.667-80.75-179.333-179.333-179.333-98.667 0-179.333 80.75-179.333 179.333v41.083h96.5v114.25h-96.583v58.167h96.5v114.25h-96.5v4.667c0 98.583 80.667 179.333 179.333 179.333v0z" />
<glyph unicode="&#xe902;" glyph-name="microphone-1" horiz-adv-x="768" d="M192 768v-320c0-106 86-192 192-192s192 86 192 192h-160c-17.6 0-32 14.4-32 32s14.4 32 32 32h160v64h-160c-17.6 0-32 14.4-32 32s14.4 32 32 32h160v64h-160c-17.6 0-32 14.4-32 32s14.4 32 32 32h160c0 106-86 192-192 192s-192-86-192-192zM640 480v-32c0-141.4-114.6-256-256-256s-256 114.6-256 256v80c0 26.6-21.4 48-48 48s-48-21.4-48-48v-80c0-178.2 132.4-325.4 304-348.8v-67.2h-96c-26.6 0-48-21.4-48-48s21.4-48 48-48h288c26.6 0 48 21.4 48 48s-21.4 48-48 48h-96v67.2c171.6 23.4 304 170.6 304 348.8v80c0 26.6-21.4 48-48 48s-48-21.4-48-48v-48z" />
<glyph unicode="&#xe903;" glyph-name="radio" d="M989.6 866c25.4 7.4 40 34.2 32.6 59.6s-34.2 40-59.8 32.4l-859-251.8c-18.8-5.4-35.8-14.6-50.2-26.4-32.2-23.2-53.2-61-53.2-103.8v-512c0-70.6 57.4-128 128-128h768c70.6 0 128 57.4 128 128v512c0 70.6-57.4 128-128 128h-459l552.6 162zM736 160c-88.4 0-160 71.6-160 160s71.6 160 160 160 160-71.6 160-160-71.6-160-160-160zM160 448c0 17.6 14.4 32 32 32h192c17.6 0 32-14.4 32-32s-14.4-32-32-32h-192c-17.6 0-32 14.4-32 32zM128 320c0 17.6 14.4 32 32 32h256c17.6 0 32-14.4 32-32s-14.4-32-32-32h-256c-17.6 0-32 14.4-32 32zM160 192c0 17.6 14.4 32 32 32h192c17.6 0 32-14.4 32-32s-14.4-32-32-32h-192c-17.6 0-32 14.4-32 32z" />
<glyph unicode="&#xe904;" glyph-name="podcast" horiz-adv-x="1043" d="M585.253 366.417v-430.408h-127.13v430.408c-41.76 22.603-70.128 66.8-70.128 117.637 0 73.822 59.863 133.685 133.693 133.685 73.822 0 133.693-59.863 133.693-133.685 0-50.837-28.369-95.033-70.128-117.637v0zM333.872 865.196c24.76 12.21 34.907 42.193 22.697 66.927-12.21 24.743-42.167 34.907-66.91 22.705-101.045-49.843-179.63-132.301-229.287-229.397-36.682-71.708-57.596-151.499-60.117-232.021-2.539-81.201 13.475-163.226 50.718-238.72 45.861-93.004 123.614-175.725 238.084-234.288 24.531-12.541 54.59-2.802 67.123 21.729 12.541 24.531 2.811 54.581-21.72 67.114-93.717 47.933-156.968 114.843-193.879 189.642-29.77 60.381-42.575 126.153-40.537 191.382 2.063 65.866 19.156 131.12 49.164 189.76 40.18 78.552 103.49 145.139 184.666 185.167v0zM753.718 954.837c-24.743 12.21-54.709 2.038-66.919-22.705s-2.055-54.726 22.705-66.927c81.184-40.036 144.494-106.615 184.657-185.175 29.999-58.631 47.1-123.886 49.155-189.76 2.038-65.229-10.767-131.002-40.528-191.382-36.911-74.799-100.162-141.709-193.879-189.642-24.531-12.541-34.253-42.592-21.72-67.114 12.533-24.531 42.592-34.262 67.123-21.729 114.461 58.555 192.223 141.284 238.084 234.288 37.242 75.495 53.257 157.52 50.718 238.72-2.522 80.522-23.436 160.313-60.109 232.021-49.665 97.096-128.242 179.554-229.287 229.406v0zM702.992 734.942c-18.638 13.425-44.63 9.187-58.054-9.451-13.416-18.638-9.187-44.63 9.451-58.054 7.515-5.409 14.885-11.48 22.111-18.12 42.21-38.915 67.241-90.804 72.498-145.708 5.315-55.396-9.434-114.096-46.854-166.019-6.351-8.822-13.671-17.764-21.95-26.747-15.581-16.914-14.503-43.288 2.437-58.861 16.931-15.573 43.296-14.477 58.869 2.437 10.020 10.86 19.411 22.425 28.148 34.576 49.775 69.11 69.339 147.746 62.172 222.443-7.201 75.172-41.36 146.116-98.905 199.177-9.052 8.347-19.029 16.464-29.923 24.327v0zM388.98 667.412c18.638 13.425 22.875 39.416 9.451 58.054s-39.416 22.875-58.054 9.459c-10.903-7.863-20.871-15.98-29.923-24.319-57.553-53.070-91.713-124.005-98.914-199.177-7.167-74.688 12.397-153.35 62.181-222.46 8.754-12.142 18.137-23.699 28.148-34.559 15.573-16.914 41.938-18.010 58.861-2.437 16.948 15.573 18.027 41.938 2.445 58.861-8.279 8.992-15.598 17.925-21.95 26.747-37.412 51.923-52.17 110.614-46.854 166.011 5.256 54.895 30.288 106.793 72.498 145.708 7.234 6.632 14.605 12.703 22.111 18.112v0z" />
<glyph unicode="&#xe905;" glyph-name="books-1" d="M384 832v-640h128v640h-128zM512 746.667l170.667-554.667 128 42.667-170.667 554.667-128-42.667zM213.333 746.667v-554.667h128v554.667h-128zM128 149.333v-85.333h768v85.333h-768z" />
<glyph unicode="&#xe906;" glyph-name="database-2" horiz-adv-x="876" d="M437.75 960c240.583 0 435.583-91.333 435.583-203.833 0-112.583-195.083-203.833-435.583-203.833s-435.583 91.333-435.583 203.833c0 112.5 195.083 203.833 435.583 203.833v0zM2.167 278.083v-156.5c77.5-275.25 843.167-222.083 871.25 14.083v156.333c-38.25-259.25-810-277.917-871.25-13.917v0 0zM0 685.5v-152.833c77.5-268.833 847.417-232.5 875.583-1.917v152.75c-38.333-253.25-814.333-255.833-875.583 2v0zM0 488v-156.5c77.5-275.25 847.417-238.083 875.583-1.917v156.333c-38.333-259.25-814.333-261.917-875.583 2.083v0z" />
<glyph unicode="&#xe910;" glyph-name="headphones" d="M288 384h-64v-448h64c17.6 0 32 14.4 32 32v384c0 17.6-14.4 32-32 32zM736 384c-17.602 0-32-14.4-32-32v-384c0-17.6 14.398-32 32-32h64v448h-64zM1024 448c0 282.77-229.23 512-512 512s-512-229.23-512-512c0-61.412 10.83-120.29 30.656-174.848-19.478-33.206-30.656-71.87-30.656-113.152 0-112.846 83.448-206.188 192-221.716v443.418c-31.914-4.566-61.664-15.842-87.754-32.378-5.392 26.718-8.246 54.364-8.246 82.676 0 229.75 186.25 416 416 416s416-186.25 416-416c0-28.314-2.83-55.968-8.22-82.696-26.1 16.546-55.854 27.848-87.78 32.418v-443.44c108.548 15.532 192 108.874 192 221.714 0 41.274-11.178 79.934-30.648 113.138 19.828 54.566 30.648 113.452 30.648 174.866z" />
<glyph unicode="&#xe911;" glyph-name="music" d="M960 960h64v-736c0-88.366-100.29-160-224-160s-224 71.634-224 160c0 88.368 100.29 160 224 160 62.684 0 119.342-18.4 160-48.040v368.040l-512-113.778v-494.222c0-88.366-100.288-160-224-160s-224 71.634-224 160c0 88.368 100.288 160 224 160 62.684 0 119.342-18.4 160-48.040v624.040l576 128z" />
<glyph unicode="&#xe914;" glyph-name="video" d="M384 672c0 88.366 71.634 160 160 160s160-71.634 160-160c0-88.366-71.634-160-160-160s-160 71.634-160 160zM0 672c0 88.366 71.634 160 160 160s160-71.634 160-160c0-88.366-71.634-160-160-160s-160 71.634-160 160zM768 352v96c0 35.2-28.8 64-64 64h-640c-35.2 0-64-28.8-64-64v-320c0-35.2 28.8-64 64-64h640c35.2 0 64 28.8 64 64v96l256-160v448l-256-160zM640 192h-512v192h512v-192z" />
<glyph unicode="&#xe91e;" glyph-name="microphone-3" d="M480 256c88.366 0 160 71.634 160 160v384c0 88.366-71.634 160-160 160s-160-71.634-160-160v-384c0-88.366 71.636-160 160-160zM704 512v-96c0-123.71-100.29-224-224-224-123.712 0-224 100.29-224 224v96h-64v-96c0-148.238 112.004-270.3 256-286.22v-129.78h-128v-64h320v64h-128v129.78c143.994 15.92 256 137.982 256 286.22v96h-64z" />
<glyph unicode="&#xe91f;" glyph-name="book" d="M896 832v-832h-672c-53.026 0-96 42.98-96 96s42.974 96 96 96h608v768h-640c-70.398 0-128-57.6-128-128v-768c0-70.4 57.602-128 128-128h768v896h-64zM224.056 128v0c-0.018-0.002-0.038 0-0.056 0-17.672 0-32-14.326-32-32s14.328-32 32-32c0.018 0 0.038 0.002 0.056 0.002v-0.002h607.89v64h-607.89z" />
<glyph unicode="&#xe920;" glyph-name="books-2" horiz-adv-x="1152" d="M224 832h-192c-17.6 0-32-14.4-32-32v-704c0-17.6 14.4-32 32-32h192c17.6 0 32 14.4 32 32v704c0 17.6-14.4 32-32 32zM192 640h-128v64h128v-64zM544 832h-192c-17.6 0-32-14.4-32-32v-704c0-17.6 14.4-32 32-32h192c17.6 0 32 14.4 32 32v704c0 17.6-14.4 32-32 32zM512 640h-128v64h128v-64zM765.088 782.52l-171.464-86.394c-15.716-7.918-22.096-27.258-14.178-42.976l287.978-571.548c7.918-15.718 27.258-22.098 42.976-14.178l171.464 86.392c15.716 7.92 22.096 27.26 14.178 42.974l-287.978 571.55c-7.92 15.718-27.26 22.1-42.976 14.18z" />
<glyph unicode="&#xe927;" glyph-name="file-picture" d="M832 64h-640v128l192 320 263-320 185 128v-256zM832 480c0-53.020-42.98-96-96-96-53.022 0-96 42.98-96 96s42.978 96 96 96c53.020 0 96-42.98 96-96zM917.806 730.924c-22.212 30.292-53.174 65.7-87.178 99.704s-69.412 64.964-99.704 87.178c-51.574 37.82-76.592 42.194-90.924 42.194h-496c-44.112 0-80-35.888-80-80v-864c0-44.112 35.888-80 80-80h736c44.112 0 80 35.888 80 80v624c0 14.332-4.372 39.35-42.194 90.924zM785.374 785.374c30.7-30.7 54.8-58.398 72.58-81.374h-153.954v153.946c22.984-17.78 50.678-41.878 81.374-72.572zM896 16c0-8.672-7.328-16-16-16h-736c-8.672 0-16 7.328-16 16v864c0 8.672 7.328 16 16 16 0 0 495.956 0.002 496 0v-224c0-17.672 14.326-32 32-32h224v-624z" />
<glyph unicode="&#xe964;" glyph-name="database-1" d="M512 960c-282.77 0-512-71.634-512-160v-128c0-88.366 229.23-160 512-160s512 71.634 512 160v128c0 88.366-229.23 160-512 160zM512 416c-282.77 0-512 71.634-512 160v-192c0-88.366 229.23-160 512-160s512 71.634 512 160v192c0-88.366-229.23-160-512-160zM512 128c-282.77 0-512 71.634-512 160v-192c0-88.366 229.23-160 512-160s512 71.634 512 160v192c0-88.366-229.23-160-512-160z" />
<glyph unicode="&#xe9a5;" glyph-name="rocket" d="M704 896l-320-320h-192l-192-256c0 0 203.416 56.652 322.066 30.084l-322.066-414.084 421.902 328.144c58.838-134.654-37.902-328.144-37.902-328.144l256 192v192l320 320 64 320-320-64z" />
<glyph unicode="&#xe9b5;" glyph-name="power" d="M384 960l-384-512h384l-256-512 896 640h-512l384 384z" />
<glyph unicode="&#xe9d9;" glyph-name="star" d="M1024 562.95l-353.78 51.408-158.22 320.582-158.216-320.582-353.784-51.408 256-249.538-60.432-352.352 316.432 166.358 316.432-166.358-60.434 352.352 256.002 249.538z" />
<glyph unicode="&#xe9da;" glyph-name="heart" d="M755.188 896c-107.63 0-200.258-87.554-243.164-179-42.938 91.444-135.578 179-243.216 179-148.382 0-268.808-120.44-268.808-268.832 0-301.846 304.5-380.994 512.022-679.418 196.154 296.576 511.978 387.206 511.978 679.418 0 148.392-120.43 268.832-268.812 268.832z" />
<glyph unicode="&#xea9b;" glyph-name="rss" d="M136.294 209.070c-75.196 0-136.292-61.334-136.292-136.076 0-75.154 61.1-135.802 136.292-135.802 75.466 0 136.494 60.648 136.494 135.802-0.002 74.742-61.024 136.076-136.494 136.076zM0.156 612.070v-196.258c127.784 0 247.958-49.972 338.458-140.512 90.384-90.318 140.282-211.036 140.282-339.3h197.122c-0.002 372.82-303.282 676.070-675.862 676.070zM0.388 960v-196.356c455.782 0 826.756-371.334 826.756-827.644h196.856c0 564.47-459.254 1024-1023.612 1024z" />
</font>
</defs>
</svg>
